Aviones (2013) 1080p / 720p & DVDrip *Audio Latino*

  • PELICULAS Y SERIES | HACE 5 MESES
Aviones 2013 1080p / 720p Dvdrip Latino 1 Link, Descargar Aviones 2013 1080p / 720p 1 link Mega, Aviones 2013 1080p / 720p DVD Full Latino peliculasyonkis, Aviones 2013 1080p / 720p Cuevana.tv, Aviones 2013 1080p / 720p pelicula completa, Aviones 2013 1080p / 720p HD 1080P 720P Buena Calidad putlocker, Aviones 2013 1080p / 720p latino HD Taringa, Aviones 2013 1080p / 720p Bluray Brrip 1 Link, Aviones 2013 1080p / 720p Español Gratis, Aviones 2013 1080p / 720p Torrent Español

Título original: Disney's Planes
Año: 2013
Duración: 92min.
País: Estados Unidos
Director: Klay Hall
Guión: Jeffrey M. Howard (Historia: John Lasseter, Klay Hall, Jeffrey M. Howard)
Música: Mark Mancina
Fotografía: Animation
Reparto: Animation
Productora: DisneyToon Studios / Prana Animation Studios
Género: Animación. Comedia. Aventuras. Infantil | Aviones. Spin-off. 3-D
Dusty es un avión que sueña con participar en una competición aérea de altos vuelos. Pero Dusty no fue precisamente construido para competir y resulta que... ¡tiene miedo a las alturas! Así que, recurre a un experimentado aviador naval que le ayuda a clasificarse para retar al vigente campeón del circuito de carreras. Dusty demostrará su valor para alcanzar alturas inimaginables y enseñará al mundo lo que hay que hacer para levantar el vuelo. Spin-off de Cars, protagonizado por vehículos aéreos, aunque la productora Pixar no es la responsable del film.
General Complete name :Aviones.2013.BRRip.1080p.Latino.C4R705.mkv Format : Matroska Format version : Version 2 File size : 1.65 GiB Duration : 1h 31mn Overall bit rate : 2 583 Kbps Encoded date : UTC 2013-11-01 06:46:56 Writing application : mkvmerge v3.4.0 ('Rapunzel') built on May 15 2010 09:38:20 Writing library : libebml v0.8.0 + libmatroska v0.9.0 Video ID : 1 Format : AVC Format/Info : Advanced Video Codec Format profile : High@L4.1 Format settings, CABAC : Yes Format settings, ReFrames : 4 frames Codec ID : V_MPEG4/ISO/AVC Duration : 1h 31mn Bit rate : 2 199 Kbps Width : 1 920 pixels Height : 1 080 pixels Display aspect ratio : 16:9 Frame rate mode : Constant Frame rate : 23.976 fps Color space : YUV Chroma subsampling : 4:2:0 Bit depth : 8 bits Scan type : Progressive Bits/(Pixel*Frame) : 0.044 Stream size : 1.37 GiB (83%) Writing library : x264 core 98 r1649 20cbe10 Encoding settings : cabac=1 / ref=4 / deblock=1:1:1 / analyse=0x3:0x113 / me=hex / subme=7 / psy=1 / psy_rd=0.40:0.00 / mixed_ref=1 / me_range=16 / chroma_me=1 / trellis=1 / 8x8dct=1 / cqm=0 / deadzone=21,11 / fast_pskip=1 / chroma_qp_offset=-2 / threads=18 / sliced_threads=0 / nr=0 / decimate=1 / interlaced=0 / constrained_intra=0 / bframes=3 / b_pyramid=2 / b_adapt=1 / b_bias=0 / direct=1 / weightb=1 / weightp=2 / keyint=250 / keyint_min=25 / scenecut=40 / intra_refresh=0 / rc_lookahead=40 / rc=2pass / mbtree=1 / bitrate=2199 / ratetol=1.0 / qcomp=0.60 / qpmin=10 / qpmax=51 / qpstep=4 / cplxblur=20.0 / qblur=0.5 / ip_ratio=1.40 / aq=1:0.60 Language : Spanish Default : No Forced : No Audio ID : 2 Format : AC-3 Format/Info : Audio Coding 3 Mode extension : CM (complete main) Format settings, Endianness : Big Codec ID : A_AC3 Duration : 1h 31mn Bit rate mode : Constant Bit rate : 384 Kbps Channel count : 6 channels Channel positions : Front: L C R, Side: L R, LFE Sampling rate : 48.0 KHz Bit depth : 16 bits Compression mode : Lossy Stream size : 252 MiB (15%) Language : Spanish Default : Yes Forced : No Text ID : 3 Format : UTF-8 Codec ID : S_TEXT/UTF8 Codec ID/Info : UTF-8 Plain Text Language : Spanish Default : Yes Forced : No
>>Enlace para Descargar Aviones (2013) 1080p / 720p & DVDrip *Audio Latino* 1 Link<<


http://freakshare.com/files/fm0wcgw6...part1.rar.html
http://freakshare.com/files/909ajtds...part2.rar.html
http://freakshare.com/files/srt6jwvo...part3.rar.html
http://freakshare.com/files/smu9txm4...part4.rar.html
http://180upload.com/spmq7lagfln7
http://180upload.com/bg8sr2u9gmw3
http://180upload.com/btqis20gvi0z
http://180upload.com/a568xfwva7ml
http://billionuploads.com/5gtti9ry8w5t
http://billionuploads.com/duxobpdcmmsf
http://billionuploads.com/oesi4ilvm2gh
http://billionuploads.com/i8d9h052iyr2
http://letitbit.net/download/46940.4...part1.rar.html
http://letitbit.net/download/67263.6...part2.rar.html
http://letitbit.net/download/44833.4...part3.rar.html
http://letitbit.net/download/64374.6...part4.rar.html
http://www.putlocker.com/file/B105F16184CEB185
http://www.putlocker.com/file/E68AA35C2EE468FC
http://www.putlocker.com/file/ECA2224C21F76FB6
http://www.putlocker.com/file/623B8132C6B16811
http://rapidgator.net/file/cad3e20c3...part1.rar.html
http://rapidgator.net/file/0612c5df9...part2.rar.html
http://rapidgator.net/file/8d1cf828a...part3.rar.html
http://rapidgator.net/file/ed5c4493c...part4.rar.html
Contraseña:
C4R705 - - - - - - - - - - - - - - - - - - - - - - - - - - - - - - - - - - - - - - - - - - - -
Aviones.2013.BRRip.720p.Latino.C4R705
General Complete name : Aviones.2013.BRRip.720p.Latino.C4R705.mkv Format : Matroska Format version : Version 2 File size : 907 MiB Duration : 1h 31mn Overall bit rate : 1 384 Kbps Encoded date : UTC 2013-11-01 06:19:00 Writing application : mkvmerge v3.4.0 ('Rapunzel') built on May 15 2010 09:38:20 Writing library : libebml v0.8.0 + libmatroska v0.9.0 Video ID : 1 Format : AVC Format/Info : Advanced Video Codec Format profile : High@L4.1 Format settings, CABAC : Yes Format settings, ReFrames : 4 frames Codec ID : V_MPEG4/ISO/AVC Duration : 1h 31mn Bit rate : 999 Kbps Width : 1 280 pixels Height : 720 pixels Display aspect ratio : 16:9 Frame rate mode : Constant Frame rate : 23.976 fps Color space : YUV Chroma subsampling : 4:2:0 Bit depth : 8 bits Scan type : Progressive Bits/(Pixel*Frame) : 0.045 Stream size : 637 MiB (70%) Writing library : x264 core 98 r1649 20cbe10 Encoding settings : cabac=1 / ref=4 / deblock=1:1:1 / analyse=0x3:0x113 / me=hex / subme=7 / psy=1 / psy_rd=0.40:0.00 / mixed_ref=1 / me_range=16 / chroma_me=1 / trellis=1 / 8x8dct=1 / cqm=0 / deadzone=21,11 / fast_pskip=1 / chroma_qp_offset=-2 / threads=18 / sliced_threads=0 / nr=0 / decimate=1 / interlaced=0 / constrained_intra=0 / bframes=3 / b_pyramid=2 / b_adapt=1 / b_bias=0 / direct=1 / weightb=1 / weightp=2 / keyint=250 / keyint_min=25 / scenecut=40 / intra_refresh=0 / rc_lookahead=40 / rc=2pass / mbtree=1 / bitrate=999 / ratetol=1.0 / qcomp=0.60 / qpmin=10 / qpmax=51 / qpstep=4 / cplxblur=20.0 / qblur=0.5 / ip_ratio=1.40 / aq=1:0.60 Language : Spanish Default : No Forced : No Audio ID : 2 Format : AC-3 Format/Info : Audio Coding 3 Mode extension : CM (complete main) Format settings, Endianness : Big Codec ID : A_AC3 Duration : 1h 31mn Bit rate mode : Constant Bit rate : 384 Kbps Channel count : 6 channels Channel positions : Front: L C R, Side: L R, LFE Sampling rate : 48.0 KHz Bit depth : 16 bits Compression mode : Lossy Stream size : 252 MiB (28%) Language : Spanish Default : Yes Forced : No Text ID : 3 Format : UTF-8 Codec ID : S_TEXT/UTF8 Codec ID/Info : UTF-8 Plain Text Language : Spanish Default : Yes Forced : No

http://letitbit.net/download/55396.5...part1.rar.html
http://u28681331.letitbit.net/downlo...part2.rar.html
http://www.putlocker.com/file/8CABD453C41ABB2A
http://www.putlocker.com/file/2BD014215E24F023
http://freakshare.com/files/y6gkvnfr...part1.rar.html
http://freakshare.com/files/wpdhm93h...part2.rar.html
http://rapidgator.net/file/aeebfb01e...part1.rar.html
http://rapidgator.net/file/9475ac5b8...part2.rar.html
http://billionuploads.com/cl8qftikqwox
http://billionuploads.com/gc21dkzpe3ky
http://180upload.com/nvl36kt38h00
http://180upload.com/ocjmlt1wnrgn
Contraseña: C4R705 - - - - - - - - - - - - - - - - - - - - - - - - - - - - - - - - - - - - - - - - - - - -
Aviones.2013.DVDRip.Latino.C4R705
General Complete name : Aviones.2013.DVDRip.Latino.C4R705.avi Format : AVI Format/Info : Audio Video Interleave File size : 700 MiB Duration : 1h 31mn Overall bit rate : 1 069 Kbps Movie name : Planes.2013.DVDRip.LATINO.XviD Recorded date : 30-10-2013 Writing application : VirtualDubMod 1.5.10.2 (build 2540/release) VirtualDubMod build 2540/release Original source form/Name : Movie Video ID : 0 Format : MPEG-4 Visual Format profile : Advanced Simple@L5 Format settings, BVOP : 2 Format settings, QPel : No Format settings, GMC : No warppoints Format settings, Matrix : Default (H.263) Codec ID : XVID Codec ID/Hint : XviD Duration : 1h 31mn Bit rate : 932 Kbps Width : 640 pixels Height : 352 pixels Display aspect ratio : 16:9 Frame rate : 23.976 fps Color space : YUV Chroma subsampling : 4:2:0 Bit depth : 8 bits Scan type : Progressive Compression mode : Lossy Bits/(Pixel*Frame) : 0.172 Stream size : 610 MiB (87%) Writing library : XviD 1.2.1 (UTC 2008-12-04) Audio ID : 1 Format : MPEG Audio Format version : Version 1 Format profile : Layer 3 Mode : Joint stereo Codec ID : 55 Codec ID/Hint : MP3 Duration : 1h 31mn Bit rate mode : Constant Bit rate : 128 Kbps Channel count : 2 channels Sampling rate : 48.0 KHz Compression mode : Lossy Stream size : 83.9 MiB (12%) Alignment : Split accross interleaves Interleave, duration : 42 ms (1.00 video frame) Interleave, preload duration : 500 ms Writing library : LAME3.99r Encoding settings : -m j -V 4 -q 2 -lowpass 17 -b 128 Language : Undefined

http://www.putlocker.com/file/A6BCACE688CA0387
http://letitbit.net/download/97142.9...4R705.rar.html
http://rapidgator.net/file/49ddc627f...4R705.rar.html
http://freakshare.com/files/0dboyt5k...4R705.rar.html
http://180upload.com/wn91ymjz3pkx
http://billionuploads.com/bo4g0ckbfl08
Contraseña: C4R705
Aviones (2013) 1080p / 720p & DVDrip *Audio Latino*
166 Visitas
  • Dar Puntos
  • +1
  • +2
  • +3
  • +4
  • +5
  • +6
  • +7
  • +8
  • +9
  • +10
0 Puntos
Para poder comentar necesitas Registrarte. O ya tienes usuario?, Iniciar Sesión!
No hay comentarios. ¡Sé el primero!
Autor
Ver perfil de nayvia nayvia
Hombre Colaborador Colaborador  Seguir  Mensaje
2779 35 4
Relacionados
Nuevo Mensaje
Para:
Titulo: